2020-07-17T18:10:07

Смотреть summer 2019 deep house.live mix by bob deep free download TRACKS LIST

Просмотров: 14 017 • 17.07.2020
193 23

summer 2019 deep house.live mix by bob deep free download TRACKS LIST
PERFORMER "Bob deep"
TITLE "summer 2019 vo1"
FILE "remix.mp3" MP3
TRACK 01 AUDIO
TITLE "Do You Wanna Know"
PERFORMER "01 Pete Bellis Tommy"
INDEX 01 00:00:00
TRACK 02 AUDIO
TITLE "Stay Out"
PERFORMER "02 Anton Ishutin feat. Leusin"
INDEX 01 04:00:00
TRACK 03 AUDIO
TITLE "Before I Leave"
PERFORMER "03 Mar G Rock Megan Kashat"
INDEX 01 08:52:00
TRACK 04 AUDIO
TITLE "Voyage Voyage"
PERFORMER "04 Desireless"
INDEX 01 12:57:00
TRACK 05 AUDIO
TITLE "YouTube"
PERFORMER "05 The Weeknd Earned It (DJ BARS Remix)"
INDEX 01 16:05:00
TRACK 06 AUDIO
TITLE "I Don't Mind"
PERFORMER "06 Anagramma"
INDEX 01 19:43:00
TRACK 07 AUDIO
TITLE "Funk Me Down - YouTube"
PERFORMER "07 Fly O Tech"
INDEX 01 24:04:00
TRACK 08 AUDIO
TITLE "Playing Games - YouTube"
PERFORMER "08 Costa Mee"
INDEX 01 28:11:00
TRACK 09 AUDIO
TITLE "I Feel Fire - YouTube"
PERFORMER "09 İlkan Günüç Melih Aydoğan, Osman Altun"
INDEX 01 32:09:00
TRACK 10 AUDIO
TITLE "Treat Me Right"
PERFORMER "10 Pete Bellis Tommy"
INDEX 01 35:38:00
TRACK 11 AUDIO
TITLE "Frozen Tears"
PERFORMER "11 DJ Artak Feat. Angel Falls"
INDEX 01 40:38:00
TRACK 12 AUDIO
TITLE "Please Me Away"
PERFORMER "12 Sandr"
INDEX 01 45:47:00
TRACK 13 AUDIO
TITLE "Come To Me - YouTube"
PERFORMER "13 JazzyFunk Sharapov"
INDEX 01 51:47:00
TRACK 14 AUDIO
TITLE "Melt"
PERFORMER "14 Platon feat. Joolay"
INDEX 01 58:08:00
TRACK 15 AUDIO
TITLE "Love Is Gone"
PERFORMER "15 Vanotek"
INDEX 01 62:31:00
holidays in Greece, 2019, Visit Greece,&Greek islands,Discover the Greek islands,Beach Parties,Around Greece,Visit The Best Music Bars,Beach Party, no limits, Top Summer hits, Crazy Night Parties,& Sexy Girls,Corfu, ios, Kefalonia, Kos, Milos, Rhodes, Santoriny, Sifnos, Spetses, Thassos, Tinos, santorini, Zakynthos, Mykonos, Paros, Samos, Naxos,Athens, Chalkis, Halkidiki,CRETE, Katerini, Kavala, Peloponnese, Thessaloniki, VolosPelio,Let's dance,&fun,bet of, Deep House vibes, progressive,disco, Chill Out ,house music,mixOriental, Arabic Deep House, Ethnic vibes Mix,Tropical House ,Relaxing Summer Mix, Best of Popular ,club music, new music, Special dance Deep House, Magic ClubSessions,deep house selestion,BABIS JB, BOB DEEP, 2019, LIVE MIX, MUSIC, TO THE Best, Greek beach bars ant cafe
For COPYRIGHT ISSUES, please email us and your song/picture will be removed immediately:djbabiscrete@gmail.commy appreciation to ARTISTs and LABELs, maybe I offer something with it.
Thank you all so much and I wish you're always happy wherever you are top djs mix

Современный и качественный плеер нашел сайта поможет смотреть видео summer 2019 deep house.live mix by bob deep free download TRACKS LIST на любом устройстве: телефон на android или iOS, или же планшет и тп. Смотрите видео и наслаждайтесь.

Еще

...
bilou boy

I love this music I kiff too much it's ball

...
gevorg asatryan

SUPER....

...
MSM

Perfect Start ????

...
Mario Bernardi

Sei grande. Superbbb.????????????????.

...
dj dunka ddj Special

deep gratujeme

...
ahmed mebrouki

توب علينا أن ندرك بأن كل ما هو إلا تفكير وضعي جاء به إلا أحد قال لي أحد الأقارب

...
Santo l'argento mascherato

Uh la la

...
Murphy Radev

Very good :)))

...
NISAPE lci

Great job.DON'T CHANGE STYLE...this is best

Популярные видео

Последние видео

ПОСМОТРИМ ПЕСНИ ИЗ СОВЕТСКИХ ФИЛЬМОВ

Просмотров: 296 487

Добавлено: 14.08.2020

ДУШЕВНЫЕ ПЕСНИ ИЗ СОВЕТСКИХ КИНОФИЛЬМОВ

Просмотров: 52 851

Добавлено: 14.08.2020

ПОСМОТРИМ ПЕСНИ ИЗ СОВЕТСКИХ ФИЛЬМОВ.

Просмотров: 646 134

Добавлено: 14.08.2020

Шедевры музыки! Самая лучшая музыка в мире!

Просмотров: 3 448 072

Добавлено: 14.08.2020